#TITLE:Believe;
#SUBTITLE:;
#ARTIST:玉置成実;
#TITLETRANSLIT:Believe;
#SUBTITLETRANSLIT:;
#ARTISTTRANSLIT:Tamaki Nami;
#CREDIT:TrungDaiBang;
#BANNER:gundambanner.jpg;
#BACKGROUND:GUNDAMBG.jpg;
#LYRICSPATH:;
#CDTITLE:CD.png;
#MUSIC:Gundam_Seed_-_Believe_(TV_Size).mp3;
#OFFSET:-0.140;
#SAMPLESTART:56.790;
#SAMPLELENGTH:20.000;
#SELECTABLE:YES;
#BPMS:0.000=145.000;
#STOPS:;
#BGCHANGES:0.000=movie.avi=1.000=1=0=0,
216.750=GUNDAMBG.jpg=1.000=0=0=1,
99999=-nosongbg-=1.000=0=0=0 // don't automatically add -songbackground-
;
// cache tags:
#FIRSTBEAT:5.000;
#LASTBEAT:216.750;
#SONGFILENAME:Songs/Music V.I.P ^_^/Believe/Believe.sm;
#HASMUSIC:1;
#HASBANNER:1;
#MUSICLENGTH:94.128;
// end cache tags

//---------------dance-single - ----------------
#NOTES:
     dance-single:
     :
     Hard:
     11:
     1.000,1.000,0.691,0.096,1.000,702.000,65.000,9.000,0.000,0.000:
0000
0000
0000
0000
,
0000
0000
1001
0100
1000
0100
1000
0100
,
1000
0100
1001
0100
0010
0100
0010
0100
,
0010
0100
1001
0010
0001
0010
0001
0010
,
0001
0000
0010
0000
1001
0100
0010
0100
0010
0100
0010
0100
0010
0001
1000
0001
,
1000
0001
1000
0001
1000
0000
0100
0000
0000
0100
0000
0010
0001
0000
0001
0010
,
0000
0100
0000
0001
0010
0000
0100
0000
0000
1000
0000
0100
1000
0000
0010
0001
,
0000
0010
0001
0010
0100
0000
0010
0000
0000
0001
0000
0010
0100
0000
0010
0100
,
0000
0010
0001
0010
0001
0000
1000
0000
0000
1000
0000
0100
0010
0000
0010
0001
,
0000
0100
0010
0100
0001
0000
0100
0010
0001
0100
0010
0100
1000
0100
0010
0001
,
0100
0010
0001
0010
0100
0010
0100
0010
1000
0010
0001
0010
0100
0010
1000
0100
,
0010
0000
0011
0011
0011
1000
0100
0010
0001
0010
1000
0100
0010
0100
0001
0010
,
0100
0010
1000
0100
1000
0100
0001
0010
0100
1000
0100
0010
0001
0100
0010
0100
,
1000
0000
0100
0001
0100
0000
0100
0010
0100
1000
0100
0010
0001
0010
0001
0010
,
0100
0001
0010
0100
1000
0100
0010
0001
0010
0100
0010
0001
0100
0001
0010
0100
,
1000
0000
0100
1000
0100
0001
0010
0100
1000
0010
0100
0010
1000
0010
0100
0001
,
0010
0001
0010
0100
0010
0100
0010
0001
0010
0100
1000
0100
1010
0101
0000
0101
,
1010
0000
1010
0000
1010
0000
0100
0010
0001
0000
0010
0100
1000
0000
1000
0100
,
0010
0000
0010
0100
1000
0000
0100
0010
0001
0000
0001
0100
1000
0000
0100
0010
,
0100
0000
1001
0110
1001
0000
0001
0010
0100
0000
1000
0100
0010
0000
0001
0010
,
0100
0000
1000
0100
0010
0000
0001
0010
0100
0000
1000
0100
0010
0000
0100
0010
,
1001
0000
0110
1001
1001
0000
0010
0100
1000
0100
0001
0010
0100
0010
0100
1000
,
0010
0001
0010
0100
1000
0100
0010
0001
0010
0100
0010
0100
0010
0001
0010
0100
,
0010
0000
1100
1100
1100
0000
1000
0100
0010
0100
0010
0001
0010
0100
1000
0100
,
0010
0001
0010
0100
0010
0100
0010
0100
1010
0000
0000
1001
0110
0000
0110
0000
,
1001
0000
0110
0110
1001
0000
0000
0000
1001
0000
0100
0000
0010
0000
0100
0000
,
1010
0000
0100
0010
0000
0000
0010
0000
1010
0000
0200
0000
0010
0000
0000
0300
,
1010
0000
0010
1001
1001
0000
0110
0000
0110
0000
0001
0000
0010
0000
0100
0000
,
1010
0100
1000
0100
1010
0002
0100
0010
,
0103
0000
1010
0101
1010
0000
0100
0000
1010
0000
0100
0000
0010
0000
0100
0000
,
1010
0000
0002
0010
0100
0000
0103
0000
1010
0000
0100
0000
2000
0000
0000
0000
,
0010
0000
0010
3000
1010
0100
0010
0001
0010
1000
0100
1000
0100
0010
0001
0100
,
1000
0001
0100
0010
0001
0010
0100
1000
0100
1000
0100
0010
0001
0010
0100
0010
,
0101
0000
0010
0000
0100
0000
0010
0000
0000
0001
1000
0001
1000
0001
1000
0001
1000
0001
1000
0001
1000
0001
1000
0001
2002
0000
0000
0000
0000
0000
0000
0000
,
0000
0000
0000
3003
0110
0000
1000
0100
0010
0100
0010
0001
0010
0100
1000
0100
,
0010
0100
0010
0100
0010
0001
0100
0010
0001
0010
0100
1000
0100
0010
0001
0010
,
0100
1000
0100
1000
0100
0010
0001
0010
0100
0010
0100
0010
0001
0010
0100
0010
,
0100
0010
0001
0010
0001
0010
0100
0010
0100
1000
0100
0010
0001
0010
0100
0010
,
1001
0000
0110
1001
1001
0000
0100
0010
0101
0010
1000
0100
0010
0001
0010
0100
,
1000
0001
0010
0100
0001
0010
0100
1000
0100
1000
0100
0010
0001
1000
0100
0010
,
1001
0100
0010
0100
1000
0100
0010
0100
1001
0010
0100
0010
0001
0010
0100
0010
,
0001
0010
0100
0010
0001
0010
0100
0010
0100
0010
0100
0010
1000
0100
0010
0100
,
1000
0000
0101
0101
0101
0000
0000
0000
0101
0000
0010
0010
0010
1000
0100
1000
,
0100
0010
1000
0100
0010
0001
0010
0100
1000
0100
0010
0001
0100
0010
0001
0010
,
0100
1000
0010
0100
0010
0001
0010
0100
0010
0100
0010
0001
0100
0010
1000
0100
,
0010
0000
0000
0000
0100
0000
0000
0000
1000
0000
0000
0000
0100
0000
0000
0000
0010
0000
0000
0000
0100
0000
0000
0000
1000
0000
0000
0000
0010
0000
0000
0000
0100
0000
0000
0000
1000
0000
0000
0000
0020
0000
0000
0000
0000
0000
0000
0000
0032
0000
0000
0000
0000
0000
0000
0000
0023
0000
0000
0000
0000
0000
0000
0030
,
1001
0000
0010
0010
0010
0100
0010
0001
1010
0100
0010
0100
0010
0001
0010
0100
,
1000
0100
0010
0100
1000
0010
0100
0010
0010
0001
0010
0100
0010
0001
0010
0100
,
1010
0100
1000
0100
1000
0100
0010
0100
0010
0100
0010
0100
0010
0100
0010
0100
,
0010
0100
0010
0100
0010
0100
1000
0100
1000
0100
1000
0100
1000
0100
1000
0100
,
1000
0100
1000
0100
1000
0100
0000
1000
0001
0100
0010
1000
0010
0001
1000
0100
,
0000
0100
0010
0000
1000
0100
0001
0010
0100
0001
0010
0100
0001
1000
0100
1000
,
0100
1000
0100
0010
1000
0100
0001
0010
0100
1000
0100
0001
0000
0010
0100
0001
,
0100
1000
0010
0001
0100
1000
0010
0100
0010
0001
0100
0010
0000
1000
0010
0100
,
0001
0010
0100
1000
0000
0000
0000
0000
0000
0000
0000
0000
0000
0000
0000
0000
;

//---------------dance-single - ----------------
#NOTES:
     dance-single:
     :
     Challenge:
     14:
     1.000,1.000,1.000,0.361,1.000,750.000,220.000,34.000,0.000,0.000:
0000
0000
0000
0000
,
0000
0000
0000
0000
0000
0000
0000
0000
0000
0000
0000
0000
0000
0000
0000
0000
1001
0000
0000
0000
0000
0000
0000
0000
0200
0000
0000
0000
0000
0000
0000
0300
2000
0000
0000
0000
0000
0000
0000
3000
0200
0000
0000
0000
0000
0000
0000
0300
2000
0000
0000
0000
0000
0000
0000
3000
0200
0000
0000
0000
0000
0000
0000
0300
,
2000
0000
0000
0000
0000
0000
0000
3000
0200
0000
0000
0000
0000
0000
0000
0300
1001
0000
0000
0000
0000
0000
0000
0000
0200
0000
0000
0000
0000
0000
0000
0300
0020
0000
0000
0000
0000
0000
0000
0030
0200
0000
0000
0000
0000
0000
0000
0300
0020
0000
0000
0000
0000
0000
0000
0030
0200
0000
0000
0000
0000
0000
0000
0300
,
0020
0000
0000
0000
0000
0000
0000
0030
0200
0000
0000
0000
0000
0000
0000
0300
1002
0000
0000
0000
0000
0000
0000
0003
1020
0000
0000
0000
0000
0000
0000
0030
1002
0000
0000
0000
0000
0000
0000
0003
1020
0000
0000
0000
0000
0000
0000
0030
1002
0000
0000
0000
0000
0000
0000
0003
1020
0000
0000
0000
0000
0000
0000
0030
,
1002
0000
0000
0000
0000
0000
0000
0003
1020
0000
0000
0000
0000
0000
0000
0030
1000
0000
0000
0000
0101
0000
0000
0000
1010
0000
0000
0000
0101
0000
0000
0000
1010
0000
0000
0000
0101
0000
0000
0000
1010
0000
0000
0000
0101
0000
0000
0000
1010
0000
0000
0000
0101
0000
0000
0000
1010
0000
0000
0000
0101
0000
0000
0000
,
1010
0101
1010
0101
1010
0000
0110
0000
0000
0110
0000
0011
0011
0000
1100
1100
,
0000
0110
0000
0011
0011
0000
0110
0000
0000
0110
0000
1100
1100
0000
0011
0011
,
0000
0110
0110
0110
0110
0000
1100
0000
0000
1100
0000
0011
0011
0000
1100
1100
,
0000
0110
0110
0110
0110
0000
1100
0000
0000
1100
0000
0110
0110
0000
0011
0011
,
0000
0110
0110
0110
1001
0010
0100
0010
1001
0100
0010
0100
1010
0100
0010
0001
,
1100
0010
0001
0010
0101
0010
0100
0010
1100
0010
0001
0010
1100
0010
1000
0100
,
0011
0000
0011
0011
0011
1000
0100
0010
0101
0010
1000
0100
1010
0100
0001
0010
,
0101
0010
1000
0100
1010
0100
0001
0010
0101
1000
0100
0010
1001
0100
0010
0100
,
1001
0000
0110
1001
0110
1000
0100
0010
1001
0010
0100
1000
0110
0001
0010
0001
,
1010
0001
0010
0100
1010
0100
0010
0001
1010
0100
0010
0001
1100
0001
0010
0100
,
1010
0000
1100
1100
1100
0001
0010
0100
1001
0010
0100
0010
1001
0010
0100
0001
,
0010
0001
0010
0100
0010
0100
0010
0001
0010
0100
1000
0100
1010
0101
0000
0101
,
1010
0000
1010
0000
1001
0000
0100
0010
0101
0000
0010
0100
1010
0000
1000
0100
,
0011
0000
0010
0100
1010
0000
0100
0010
0101
0000
0001
0100
1010
0000
0100
0010
,
0101
0000
1001
0110
1001
0000
0100
1000
0110
0000
0010
0001
0110
0000
0100
1000
,
0110
0000
1000
0100
1010
0000
0010
0001
0110
0000
1000
0100
1010
0000
0010
0001
,
0110
0000
0110
1001
1001
0000
0010
0100
1010
0000
0001
0010
1100
0000
1000
0100
,
1010
0000
1000
0100
0011
0000
0100
0010
1001
0000
0100
0010
1001
0000
0010
1000
,
0101
0000
1100
1100
1100
0000
1000
0100
0011
0000
0001
0010
1100
0000
0100
0010
,
1001
0000
0010
0100
1001
0000
1000
0100
0011
0000
0110
1001
0110
0000
0110
0000
,
1001
0000
0110
0110
1001
0000
0000
0000
0110
0000
1000
0100
0010
0100
1000
0100
,
1001
0000
0100
0010
0100
0010
0100
0010
1001
0000
0100
0010
0100
1000
0100
1000
,
0101
0000
0001
0010
0100
0010
0001
0010
0101
0000
1000
0010
0100
0010
0001
0010
,
1100
0000
1000
0100
0001
1000
0100
0010
0101
0000
1000
0010
0100
0001
0100
0010
,
1001
0000
0010
0001
0010
0100
1000
0100
1001
0000
0100
0010
1000
0100
0010
0100
,
1010
0000
0100
0010
0100
1000
0100
0010
0101
0000
0001
0010
0100
1000
0010
0100
,
1010
0000
0010
0100
1000
0100
0010
0001
0110
1000
0100
1000
0100
0010
0001
0100
,
1010
0001
0100
0010
0001
0010
0100
1000
0110
1000
0100
0010
0001
0010
0100
0010
,
0101
0000
0010
0000
0100
0000
0010
0000
1001
0001
1000
0001
1000
0001
1000
0001
1000
0001
1000
0001
1000
0001
1000
0001
1010
0100
1000
0100
0010
0001
0010
0100
,
1000
0100
0010
0001
0010
0100
1000
0100
0012
0000
0000
0000
1000
0000
0100
0003
0010
0000
0100
0000
0010
0000
0001
0000
0010
0000
0100
0000
1000
0000
0100
0000
,
0011
0100
0010
0100
0010
0001
0100
0010
0101
0010
0100
1000
0100
0010
0001
0010
,
0101
1000
0101
1010
0101
0010
0001
0010
1100
0010
0100
0010
0001
0010
0100
0010
,
0101
0010
0001
0010
0001
0010
0100
0010
0100
1000
0100
0010
0001
0010
0100
0010
,
0101
0010
0110
1001
1001
0010
0100
0010
0101
0010
1000
0100
0010
0001
0010
0100
,
1010
0001
0010
0100
0001
0010
0100
1000
0110
1000
0100
0010
0001
1000
0100
0010
,
1001
0100
0012
0100
1000
0100
0013
0100
1001
0010
0100
0010
0101
0010
0101
0010
,
0101
0010
0100
0011
2100
0010
0001
0010
3100
0010
0102
0010
1000
0100
0010
0103
,
1000
0000
0101
0101
0101
0010
0100
0010
0101
0000
0101
1010
0101
0010
0100
1000
,
0100
0010
1000
0100
0012
0100
0010
0100
1003
0100
0010
0001
0100
0010
0001
0010
,
0101
1000
0010
0100
0010
0001
0010
0100
1010
0100
0010
0001
0100
0010
1000
0100
,
0010
0000
0000
0000
0100
0000
0000
0000
0012
0000
0000
0000
0100
0000
0000
0000
0010
0000
0000
0000
0100
0000
0000
0000
1000
0000
0000
0000
0013
0000
0000
0000
0100
0000
0000
0000
1000
0000
0000
0000
0220
0000
0000
0000
0000
0000
0000
0330
2002
0000
0000
0000
0000
0000
0000
3003
0220
0000
0000
0000
0000
0000
0000
0330
,
1001
0000
1010
1010
1010
0100
0010
0001
1010
0100
0010
0100
0010
0001
0010
0100
,
1010
0100
0010
0100
1000
0010
0100
1010
1010
0001
0010
0100
0010
0001
0010
0100
,
1010
0100
1000
0100
1000
0100
0010
0100
0010
0100
0010
0100
0010
0100
0010
0100
,
0010
0100
0010
0100
0010
0100
1010
0100
1010
0100
1010
0100
1010
0100
1010
0100
,
1010
0100
1010
0100
1010
0100
0010
1000
0001
0100
0010
1000
0010
0001
1000
0100
,
0000
0100
0010
0000
1000
0100
0001
0010
0100
0001
0010
0100
0001
1000
0100
1000
,
0100
1000
0100
0010
1000
0100
0001
0010
0100
1000
0100
0001
0000
0010
0100
0001
,
0100
1000
0010
0001
0100
1000
0010
0100
0010
0001
0100
0010
0000
1000
0010
0100
,
0001
0010
0100
1000
0000
0000
0000
0000
0000
0000
0000
0000
0000
0000
0000
0000
;

//---------------dance-single - ----------------
#NOTES:
     dance-single:
     :
     Medium:
     1:
     0.000,0.000,0.000,0.000,0.000,0.000,0.000,0.000,0.000,0.000:
0000
0000
0000
0000
;

//---------------dance-single - ----------------
#NOTES:
     dance-single:
     :
     Easy:
     1:
     0.000,0.000,0.000,0.000,0.000,0.000,0.000,0.000,0.000,0.000:
0000
0000
0000
0000
;
